<?xml version="1.0" standalone="no"?>
<!DOCTYPE svg PUBLIC "-//W3C//DTD SVG 1.1//EN" "http://www.w3.org/Graphics/SVG/1.1/DTD/svg11.dtd" >
<svg xmlns="http://www.w3.org/2000/svg" xmlns:xlink="http://www.w3.org/1999/xlink" version="1.1">
<metadata></metadata>
<defs>
<font id="bebas_neuethin" horiz-adv-x="925" >
<font-face units-per-em="2048" ascent="1536" descent="-512" />
<missing-glyph horiz-adv-x="317" />
<glyph horiz-adv-x="0" />
<glyph horiz-adv-x="682" />
<glyph unicode=" "  horiz-adv-x="317" />
<glyph unicode="&#x09;" horiz-adv-x="317" />
<glyph unicode="&#xa0;" horiz-adv-x="317" />
<glyph unicode="!" horiz-adv-x="184" d="M82 0v158h20v-158h-20zM82 602v834h20v-834l-2 -285h-16z" />
<glyph unicode="&#x22;" horiz-adv-x="284" d="M82 1118v318h20v-318h-20zM182 1118v318h21v-318h-21z" />
<glyph unicode="#" horiz-adv-x="851" d="M82 481v19h156l53 516h-156v18h158l41 402h20l-41 -402h301l41 402h21l-41 -402h135v-18h-137l-53 -516h135v-19h-137l-52 -481h-20l51 481h-301l-51 -481h-21l52 481h-154zM258 500h301l53 516h-301z" />
<glyph unicode="$" horiz-adv-x="751" d="M82 346v68h20v-68q0 -151 65.5 -243.5t209.5 -92.5t209 92.5t65 243.5q0 75 -31 136.5t-80.5 105t-109.5 82.5t-120.5 79.5t-110 85.5t-80.5 110t-31 145q0 160 68 254t213 100v133h20v-133q75 -2 131 -31.5t88 -79.5t47 -111.5t15 -134.5v-24h-21v24q0 71 -14 129 t-44.5 106t-84 74.5t-127.5 26.5t-127.5 -26t-84 -73.5t-44.5 -105t-14 -128.5q0 -60 19.5 -111.5t52 -90t74.5 -72.5t88.5 -64t93.5 -60t89 -65t74.5 -74t52 -92t19.5 -115q0 -74 -15.5 -135.5t-48 -111t-88.5 -78.5t-131 -31v-119h-20v119q-77 1 -133.5 29.5t-89.5 78 t-48.5 111.5t-15.5 137z" />
<glyph unicode="%" horiz-adv-x="1214" d="M82 784v416q0 101 42.5 168.5t137.5 67.5t137.5 -67.5t42.5 -168.5v-416q0 -101 -42.5 -167t-137.5 -66t-137.5 66t-42.5 167zM102 784q0 -59 12.5 -103.5t50 -77t97.5 -32.5q86 0 123 60.5t37 152.5v416q0 43 -7.5 79t-25 68t-50 50t-77.5 18q-60 0 -97.5 -33t-50 -78 t-12.5 -104v-416zM311 0l566 1436h22l-565 -1436h-23zM772 236v407q0 101 42.5 167.5t137.5 66.5q96 0 138.5 -66t42.5 -168v-407q0 -102 -42.5 -169t-138.5 -67q-95 0 -137.5 67.5t-42.5 168.5zM793 236q0 -43 7.5 -79t24.5 -68t49.5 -50.5t77.5 -18.5q46 0 78.5 18.5 t49.5 50.5t24.5 68t7.5 79v407q0 59 -12.5 103.5t-50 77t-97.5 32.5q-86 0 -122.5 -60.5t-36.5 -152.5v-407z" />
<glyph unicode="&#x26;" horiz-adv-x="813" d="M82 324v129q0 103 53 185t152 110q-100 23 -152.5 104t-52.5 184v41q0 173 87 265t259 92h174v-21h-174q-326 0 -326 -336v-41q0 -108 62 -189.5t168 -88.5h291v160h20v-160h88v-19h-88v-542q0 -47 1.5 -72t11.5 -60.5t30 -64.5h-24q-37 63 -37 150 q-31 -77 -100.5 -118.5t-157.5 -41.5q-145 0 -215 91.5t-70 242.5zM102 324q0 -142 65 -228t200 -86q111 0 183.5 67t72.5 177v485h-277q-114 -10 -179 -90t-65 -196v-129z" />
<glyph unicode="'" horiz-adv-x="184" d="M82 1118v318h20v-318h-20z" />
<glyph unicode="(" horiz-adv-x="450" d="M82 319v797q0 74 11.5 128.5t38.5 99.5t79 68.5t127 23.5h31v-21h-31q-57 0 -99.5 -15t-68 -40.5t-41.5 -64.5t-21.5 -81.5t-5.5 -97.5v-797q0 -71 9.5 -121t34 -92.5t72.5 -64t120 -21.5h31v-20h-31q-61 0 -106.5 16t-74 43t-45.5 68.5t-23.5 87t-6.5 104.5z" />
<glyph unicode=")" horiz-adv-x="450" d="M82 0v20h31q72 0 119.5 21.5t72 64t34 92.5t9.5 121v797q0 70 -9.5 120t-34.5 93t-72.5 64.5t-118.5 21.5h-31v21h31q75 0 127 -23.5t79 -68.5t38.5 -99.5t11.5 -128.5v-797q0 -59 -6.5 -104.5t-23.5 -87t-45.5 -68.5t-74 -43t-106.5 -16h-31z" />
<glyph unicode="*" horiz-adv-x="804" d="M102 1182l7 20l282 -84v299h21v-299l284 78l6 -20l-286 -74l170 -244l-17 -12l-168 244l-168 -242l-16 10l170 244z" />
<glyph unicode="+" horiz-adv-x="786" d="M82 707v20h301v303h20v-303h302v-20h-302v-308h-20v308h-301z" />
<glyph unicode="," horiz-adv-x="215" d="M82 -127l33 127h-2v160h20v-160l-37 -127h-14z" />
<glyph unicode="-" horiz-adv-x="520" d="M82 709v18h356v-18h-356z" />
<glyph unicode="." horiz-adv-x="184" d="M82 0v160h20v-160h-20z" />
<glyph unicode="/" horiz-adv-x="749" d="M82 0l565 1434h21l-566 -1434h-20z" />
<glyph unicode="0" horiz-adv-x="763" d="M82 354v727q0 77 16.5 141t51.5 114.5t94 79t139 28.5q79 0 138 -28.5t93.5 -79t51 -114.5t16.5 -141v-727q0 -77 -16.5 -141t-51 -115t-93.5 -79.5t-138 -28.5q-80 0 -139 28.5t-94 79.5t-51.5 115t-16.5 141zM102 354q0 -58 9 -107.5t30.5 -93.5t53 -75.5t80 -49.5 t108.5 -18q75 0 130.5 27t87 75.5t46.5 108.5t15 133v727q0 73 -15 133t-46.5 108.5t-87 75.5t-130.5 27q-60 0 -108.5 -18t-80 -49.5t-53 -75.5t-30.5 -93.5t-9 -107.5v-727z" />
<glyph unicode="1" horiz-adv-x="442" d="M82 1204v21q88 10 148.5 66t91.5 145h28v-1436h-20v1399q-35 -82 -98.5 -133.5t-149.5 -61.5z" />
<glyph unicode="2" horiz-adv-x="751" d="M82 0v10q0 112 31.5 212t81.5 175t110 143.5t120.5 130.5t110.5 122.5t81.5 132.5t31.5 149q0 350 -274 350q-75 0 -130 -29t-85 -80.5t-44 -112t-14 -132.5v-67h-20v67q0 77 15 141t48 118t91.5 84t138.5 30q66 0 117.5 -19.5t84.5 -53t54.5 -81t30 -100.5t8.5 -115 q0 -79 -31 -152.5t-80 -134.5t-109 -122.5t-120.5 -128.5t-110.5 -139t-82.5 -168t-34.5 -203v-7h562v-20h-582z" />
<glyph unicode="3" horiz-adv-x="753" d="M82 354v60h20v-60q0 -72 14.5 -131.5t45 -108.5t85.5 -76.5t130 -27.5t129.5 27.5t85.5 76.5t45 108t14 132v109q0 120 -65.5 194.5t-184.5 81.5h-108v19h108q113 9 181.5 91.5t68.5 197.5v34q0 73 -14 132t-45 108t-85.5 76.5t-129.5 27.5t-130 -27.5t-85.5 -76.5 t-45 -108.5t-14.5 -131.5v-37h-20v37q0 77 15.5 140.5t49 114.5t92.5 79.5t138 28.5t138 -28.5t92.5 -79.5t49 -114.5t15.5 -140.5v-34q0 -103 -57 -185.5t-154 -111.5q102 -26 156.5 -103t54.5 -184v-109q0 -61 -9.5 -113.5t-31.5 -99.5t-55.5 -80t-84 -52t-114.5 -19 t-114.5 19t-84 52t-55.5 80t-31.5 99.5t-9.5 113.5z" />
<glyph unicode="4" horiz-adv-x="833" d="M82 348v23l512 1065h29v-1067h129v-21h-129v-348h-21v348h-520zM102 369h500v1036z" />
<glyph unicode="5" horiz-adv-x="753" d="M82 354v54h20v-54q0 -71 14.5 -131t45.5 -109t86 -76.5t129 -27.5q60 0 107 18.5t78 50t51.5 76t29 93.5t8.5 106v203q0 72 -14.5 131t-45.5 107.5t-85.5 76t-128.5 27.5q-91 0 -156 -46.5t-98 -131.5v-12h-21l37 727h506v-21h-487l-31 -643q75 148 250 148 q79 0 137.5 -29t92 -80.5t49.5 -115t16 -138.5v-203q0 -76 -16 -139.5t-49.5 -115t-92 -80.5t-137.5 -29t-137.5 29t-92 80.5t-49.5 115t-16 139.5z" />
<glyph unicode="6" horiz-adv-x="765" d="M82 354v727q0 77 16.5 141t51.5 114.5t94 79t139 28.5q79 0 137.5 -27t92 -76.5t49.5 -111.5t16 -139v-7h-21v7q0 72 -14 130.5t-45 105.5t-85.5 73t-129.5 26q-60 0 -108.5 -18t-80 -49.5t-53 -75.5t-30.5 -93.5t-9 -107.5v-444q31 100 102.5 153.5t178.5 53.5 q80 0 139 -28.5t94 -79.5t51.5 -114.5t16.5 -140.5v-127q0 -77 -16.5 -141t-51.5 -115t-94 -79.5t-139 -28.5t-139 28.5t-94 79.5t-51.5 115t-16.5 141zM102 354q0 -58 9 -107.5t30.5 -93.5t53 -75.5t80 -49.5t108.5 -18t108.5 18t80 49.5t53 75.5t30.5 93.5t9 107.5v127 q0 72 -15 131.5t-47 108t-88 75.5t-131 27t-131 -27t-88 -75.5t-47 -108t-15 -131.5v-127z" />
<glyph unicode="7" horiz-adv-x="753" d="M82 1415v21h590v-23l-443 -1413h-22l442 1415h-567z" />
<glyph unicode="8" horiz-adv-x="784" d="M82 342v94q0 129 51 209t170 105q-221 42 -221 307v47q0 156 78.5 248t230.5 92q153 0 232 -92t79 -248v-47q0 -122 -52.5 -204t-164.5 -103q217 -44 217 -314v-94q0 -160 -77.5 -256t-233.5 -96q-155 0 -232 96t-77 256zM102 342q0 -151 71.5 -241.5t217.5 -90.5 q147 0 219 90.5t72 241.5v94q0 150 -71 225.5t-220 75.5q-289 0 -289 -301v-94zM102 1057q0 -145 72.5 -222t216.5 -77q146 0 218.5 77t72.5 222v47q0 147 -73.5 234t-217.5 87q-143 0 -216 -87t-73 -234v-47z" />
<glyph unicode="9" horiz-adv-x="765" d="M82 348v8h20v-8q0 -151 68 -244.5t213 -93.5q60 0 108.5 18t80 49.5t53 75.5t30.5 93.5t9 107.5v445q-31 -100 -102.5 -153.5t-178.5 -53.5q-80 0 -139 28.5t-94 79t-51.5 114t-16.5 140.5v127q0 77 16.5 141.5t51.5 115.5t94 79.5t139 28.5t139 -28.5t94 -79.5 t51.5 -115.5t16.5 -141.5v-727q0 -77 -16.5 -141t-51.5 -115t-94 -79.5t-139 -28.5q-154 0 -227.5 98.5t-73.5 259.5zM102 954q0 -72 15 -131.5t47 -108t88 -75.5t131 -27t131 27t88 75.5t47 108t15 131.5v127q0 58 -9 107.5t-30.5 93.5t-53 75.5t-80 49.5t-108.5 18 t-108.5 -18t-80 -49.5t-53 -75.5t-30.5 -93.5t-9 -107.5v-127z" />
<glyph unicode=":" horiz-adv-x="184" d="M82 0v160h20v-160h-20zM82 780v160h20v-160h-20z" />
<glyph unicode=";" horiz-adv-x="215" d="M82 -127l33 127h-2v160h20v-160l-37 -127h-14zM113 780v160h20v-160h-20z" />
<glyph unicode="&#x3c;" horiz-adv-x="729" d="M82 707v20l565 289v-23l-541 -276l541 -277v-22z" />
<glyph unicode="=" horiz-adv-x="520" d="M82 649v19h356v-19h-356zM82 854v18h356v-18h-356z" />
<glyph unicode="&#x3e;" horiz-adv-x="729" d="M82 418v22l541 277l-541 276v23l565 -289v-20z" />
<glyph unicode="?" horiz-adv-x="745" d="M82 1004v67q0 76 15 140t47 118t90.5 84.5t138.5 30.5q81 0 139.5 -29t90.5 -82t46.5 -116.5t14.5 -141.5q0 -80 -33 -152t-79.5 -128t-93 -112.5t-79.5 -130.5t-33 -157q0 -35 10 -73h-20q-10 42 -10 73q1 86 33.5 161.5t79 132.5t93 113t79 126t32.5 147 q0 350 -270 350q-75 0 -130 -29.5t-84.5 -81t-43 -111.5t-13.5 -132v-67h-20zM334 0v158h20v-158h-20z" />
<glyph unicode="@" horiz-adv-x="1409" d="M82 580q0 116 17.5 224.5t52.5 210.5t93.5 186.5t135 148t182.5 98.5t232 35q267 0 399.5 -147.5t132.5 -417.5q0 -55 -6 -115t-19 -131t-38 -133t-59 -114t-86 -83t-115 -31q-59 0 -89 42.5t-32 105.5q-69 -174 -234 -174q-64 0 -108 27t-64.5 74t-27 99t-0.5 111 l20 201q6 60 24.5 110.5t49.5 91.5t79.5 64.5t110.5 23.5q159 0 197 -153l14 141h21l-62 -579q-5 -65 18 -114.5t83 -49.5q51 0 94.5 23t74.5 60.5t55 88.5t39 104t24.5 110.5t12.5 105.5t3 91q0 263 -126.5 405t-385.5 142q-146 0 -265 -50t-197.5 -133.5t-131.5 -198 t-76 -239.5t-23 -261q0 -639 605 -639q225 0 358 108v-26q-148 -103 -358 -103q-316 0 -470.5 170t-154.5 490zM468 491q7 -51 23.5 -92.5t57.5 -67.5t100 -26t105 25t74 67.5t43.5 92t21.5 106.5l22 201q8 51 0.5 99.5t-25.5 86.5t-58.5 61t-98.5 23t-103 -22t-73.5 -61.5 t-45 -86t-22.5 -102.5l-20 -203q-8 -50 -1 -101z" />
<glyph unicode="A" d="M82 0l362 1436h29l371 -1436h-21l-90 348h-543l-88 -348h-20zM197 369h530l-268 1040z" />
<glyph unicode="B" horiz-adv-x="741" d="M82 0v1434h280q148 0 208.5 -72.5t60.5 -220.5v-99q0 -129 -46 -196.5t-167 -81.5q241 -27 241 -307v-129q0 -328 -297 -328h-280zM102 20h260q146 0 211.5 79t65.5 229v129q0 159 -77 228t-238 69h-222v-734zM102 774h199q85 0 139.5 11t94.5 40t57.5 82t17.5 135v99 q0 140 -54.5 206t-193.5 66h-260v-639z" />
<glyph unicode="C" horiz-adv-x="753" d="M82 352v729q0 75 16 138.5t49.5 115t92 80.5t137.5 29t137.5 -29t92 -80.5t49.5 -115t16 -138.5v-108h-21v108q0 72 -14.5 131t-45.5 107.5t-85.5 76t-128.5 27.5t-129 -27.5t-86 -76t-45.5 -108t-14.5 -130.5v-729q0 -71 14.5 -130.5t45.5 -108t86 -76t129 -27.5 t128.5 27.5t85.5 76t45.5 107.5t14.5 131v152h21v-152q0 -75 -16 -138.5t-49.5 -114.5t-92 -80t-137.5 -29t-137.5 29t-92 80t-49.5 114.5t-16 138.5z" />
<glyph unicode="D" horiz-adv-x="761" d="M82 0v1434h291q156 0 231.5 -99t75.5 -260v-719q0 -104 -30 -181.5t-100 -126t-175 -48.5h-293zM102 20h273q147 0 215.5 92t68.5 244v719q0 153 -69.5 245.5t-216.5 92.5h-271v-1393z" />
<glyph unicode="E" horiz-adv-x="700" d="M82 0v1434h536v-21h-516v-676h437v-20h-437v-697h516v-20h-536z" />
<glyph unicode="F" horiz-adv-x="679" d="M82 0v1434h516v-21h-496v-713h416v-20h-416v-680h-20z" />
<glyph unicode="G" horiz-adv-x="753" d="M82 352v729q0 75 16 138.5t49.5 115t92 80.5t137.5 29t137.5 -29t92 -80.5t49.5 -115t16 -138.5v-90h-21v90q0 72 -14.5 131t-45.5 107.5t-85.5 76t-128.5 27.5t-129 -27.5t-86 -76t-45.5 -108t-14.5 -130.5v-729q0 -71 14.5 -130.5t45.5 -108t86 -76t129 -27.5 t128.5 27.5t85.5 76t45.5 107.5t14.5 131v334h-241v21h262v-355q0 -75 -16 -138.5t-49.5 -114.5t-92 -80t-137.5 -29t-137.5 29t-92 80t-49.5 114.5t-16 138.5z" />
<glyph unicode="H" horiz-adv-x="757" d="M82 0v1434h20v-707h553v707h21v-1434h-21v707h-553v-707h-20z" />
<glyph unicode="I" horiz-adv-x="184" d="M82 0v1434h20v-1434h-20z" />
<glyph unicode="J" horiz-adv-x="516" d="M82 0v20q7 -1 17 -1q25 0 69 4q129 12 187.5 89t58.5 238v1084h20v-1084q0 -170 -66 -253.5t-200 -94.5q-36 -3 -62 -3q-13 0 -24 1z" />
<glyph unicode="K" horiz-adv-x="817" d="M82 0v1434h20v-834l566 834h24l-463 -684l506 -750h-24l-494 731l-115 -168v-563h-20z" />
<glyph unicode="L" horiz-adv-x="679" d="M82 0v1434h20v-1414h496v-20h-516z" />
<glyph unicode="M" horiz-adv-x="993" d="M82 0v1434h37l377 -1407l381 1407h34v-1434h-20v1413l-381 -1409h-29l-379 1409v-1413h-20z" />
<glyph unicode="N" horiz-adv-x="759" d="M82 0v1434h35l540 -1407v1407h21v-1434h-31l-545 1413v-1413h-20z" />
<glyph unicode="O" horiz-adv-x="763" d="M82 352v729q0 77 16.5 140.5t51 114.5t93.5 79.5t138 28.5q80 0 139 -28.5t94 -79.5t51.5 -114.5t16.5 -140.5v-729q0 -77 -16.5 -140.5t-51.5 -114t-94 -79t-139 -28.5q-79 0 -138 28.5t-93.5 79t-51 114t-16.5 140.5zM102 352q0 -73 15 -132.5t46.5 -107.5t87 -75 t130.5 -27t131 27t88 75t47 107.5t15 132.5v729q0 72 -15 131.5t-47 108t-88 75.5t-131 27t-130.5 -27t-87 -75.5t-46.5 -108t-15 -131.5v-729z" />
<glyph unicode="P" horiz-adv-x="731" d="M82 0v1434h276q291 0 291 -344v-140q0 -170 -79.5 -251t-250.5 -81h-217v-618h-20zM102 639h217q163 0 236.5 74.5t73.5 236.5v140q0 152 -62 237.5t-209 85.5h-256v-774z" />
<glyph unicode="Q" horiz-adv-x="847" d="M82 352v729q0 77 16.5 140.5t51.5 114.5t94 79.5t139 28.5t139 -28.5t94 -79.5t51.5 -114.5t16.5 -140.5v-729q0 -174 -82 -272q45 -72 141 -72h23v-20h-23q-103 0 -155 78q-76 -76 -205 -76q-80 0 -139 28.5t-94 79t-51.5 114t-16.5 140.5zM102 352q0 -73 15 -132.5 t47 -107.5t88 -75t131 -27t131 27t88 75t47 107.5t15 132.5v729q0 72 -15 131.5t-47 108t-88 75.5t-131 27t-131 -27t-88 -75.5t-47 -108t-15 -131.5v-729z" />
<glyph unicode="R" horiz-adv-x="772" d="M82 0v1434h276q291 0 291 -322v-129q0 -136 -57.5 -210t-181.5 -93q239 -33 239 -285v-225q0 -120 41 -170h-24q-37 56 -37 170v225q0 81 -24 136.5t-71 85.5t-105.5 42.5t-137.5 12.5h-189v-672h-20zM102 692h189q85 0 143.5 12.5t104.5 43.5t68 89.5t22 145.5v129 q0 145 -64 223t-207 78h-256v-721z" />
<glyph unicode="S" horiz-adv-x="753" d="M82 346v68h20v-68q0 -151 65.5 -243.5t209.5 -92.5t209 92.5t65 243.5q0 75 -31 136.5t-80.5 105t-109.5 82.5t-120.5 79.5t-110 85.5t-80.5 110t-31 145q0 164 71 258.5t220 95.5q78 0 135.5 -28t91 -78.5t49 -113t15.5 -137.5v-24h-21v24q0 71 -14 129t-44.5 106 t-84 74.5t-127.5 26.5t-127.5 -26t-84 -73.5t-44.5 -105t-14 -128.5q0 -60 19.5 -111.5t52 -90t74.5 -72.5t88.5 -64t93.5 -60t89 -65t74.5 -74t52 -92t19.5 -115q0 -159 -71 -257.5t-224 -98.5t-224 98.5t-71 257.5z" />
<glyph unicode="T" horiz-adv-x="772" d="M49 1413v21h668v-21h-324v-1413h-20v1413h-324z" />
<glyph unicode="U" horiz-adv-x="743" d="M82 356v1078h20v-1078q0 -72 13.5 -131.5t43.5 -109t84.5 -77.5t129.5 -28q74 0 128 28t83.5 77.5t43 109t13.5 131.5v1078h21v-1078q0 -76 -15 -139t-47.5 -115.5t-90.5 -82t-136 -29.5q-79 0 -137.5 29.5t-91 82t-47.5 115.5t-15 139z" />
<glyph unicode="V" d="M82 1434h22l361 -1411l356 1411h23l-363 -1434h-30z" />
<glyph unicode="W" horiz-adv-x="1282" d="M82 1434h20l269 -1405l266 1396h33l250 -1386l260 1395h20l-268 -1434h-27l-252 1405l-268 -1405h-31z" />
<glyph unicode="X" horiz-adv-x="913" d="M82 0l364 745l-340 689h23l328 -666l327 666h23l-338 -689l362 -745h-22l-352 723l-351 -723h-24z" />
<glyph unicode="Y" horiz-adv-x="872" d="M82 1434h20l332 -811l334 811h23l-347 -840v-594h-20v594z" />
<glyph unicode="Z" horiz-adv-x="815" d="M82 0v23l627 1390h-596v21h618v-25l-627 -1389h617v-20h-639z" />
<glyph unicode="[" horiz-adv-x="454" d="M82 0v1436h291v-21h-271v-1395h271v-20h-291z" />
<glyph unicode="\" horiz-adv-x="749" d="M82 1434h20l566 -1434h-21z" />
<glyph unicode="]" horiz-adv-x="454" d="M82 0v20h270v1395h-270v21h291v-1436h-291z" />
<glyph unicode="^" horiz-adv-x="851" d="M82 801l332 633h24l332 -633h-25l-319 610l-320 -610h-24z" />
<glyph unicode="_" horiz-adv-x="1064" d="M82 -20h881v-19h-881v19z" />
<glyph unicode="`" horiz-adv-x="342" d="M82 1737h29l149 -176h-27z" />
<glyph unicode="a" d="M82 0l362 1436h29l371 -1436h-21l-90 348h-543l-88 -348h-20zM197 369h530l-268 1040z" />
<glyph unicode="b" horiz-adv-x="741" d="M82 0v1434h280q148 0 208.5 -72.5t60.5 -220.5v-99q0 -129 -46 -196.5t-167 -81.5q241 -27 241 -307v-129q0 -328 -297 -328h-280zM102 20h260q146 0 211.5 79t65.5 229v129q0 159 -77 228t-238 69h-222v-734zM102 774h199q85 0 139.5 11t94.5 40t57.5 82t17.5 135v99 q0 140 -54.5 206t-193.5 66h-260v-639z" />
<glyph unicode="c" horiz-adv-x="753" d="M82 352v729q0 75 16 138.5t49.5 115t92 80.5t137.5 29t137.5 -29t92 -80.5t49.5 -115t16 -138.5v-108h-21v108q0 72 -14.5 131t-45.5 107.5t-85.5 76t-128.5 27.5t-129 -27.5t-86 -76t-45.5 -108t-14.5 -130.5v-729q0 -71 14.5 -130.5t45.5 -108t86 -76t129 -27.5 t128.5 27.5t85.5 76t45.5 107.5t14.5 131v152h21v-152q0 -75 -16 -138.5t-49.5 -114.5t-92 -80t-137.5 -29t-137.5 29t-92 80t-49.5 114.5t-16 138.5z" />
<glyph unicode="d" horiz-adv-x="761" d="M82 0v1434h291q156 0 231.5 -99t75.5 -260v-719q0 -104 -30 -181.5t-100 -126t-175 -48.5h-293zM102 20h273q147 0 215.5 92t68.5 244v719q0 153 -69.5 245.5t-216.5 92.5h-271v-1393z" />
<glyph unicode="e" horiz-adv-x="700" d="M82 0v1434h536v-21h-516v-676h437v-20h-437v-697h516v-20h-536z" />
<glyph unicode="f" horiz-adv-x="679" d="M82 0v1434h516v-21h-496v-713h416v-20h-416v-680h-20z" />
<glyph unicode="g" horiz-adv-x="753" d="M82 352v729q0 75 16 138.5t49.5 115t92 80.5t137.5 29t137.5 -29t92 -80.5t49.5 -115t16 -138.5v-90h-21v90q0 72 -14.5 131t-45.5 107.5t-85.5 76t-128.5 27.5t-129 -27.5t-86 -76t-45.5 -108t-14.5 -130.5v-729q0 -71 14.5 -130.5t45.5 -108t86 -76t129 -27.5 t128.5 27.5t85.5 76t45.5 107.5t14.5 131v334h-241v21h262v-355q0 -75 -16 -138.5t-49.5 -114.5t-92 -80t-137.5 -29t-137.5 29t-92 80t-49.5 114.5t-16 138.5z" />
<glyph unicode="h" horiz-adv-x="757" d="M82 0v1434h20v-707h553v707h21v-1434h-21v707h-553v-707h-20z" />
<glyph unicode="i" horiz-adv-x="184" d="M82 0v1434h20v-1434h-20z" />
<glyph unicode="j" horiz-adv-x="516" d="M82 0v20q7 -1 17 -1q25 0 69 4q129 12 187.5 89t58.5 238v1084h20v-1084q0 -170 -66 -253.5t-200 -94.5q-36 -3 -62 -3q-13 0 -24 1z" />
<glyph unicode="k" horiz-adv-x="817" d="M82 0v1434h20v-834l566 834h24l-463 -684l506 -750h-24l-494 731l-115 -168v-563h-20z" />
<glyph unicode="l" horiz-adv-x="679" d="M82 0v1434h20v-1414h496v-20h-516z" />
<glyph unicode="m" horiz-adv-x="993" d="M82 0v1434h37l377 -1407l381 1407h34v-1434h-20v1413l-381 -1409h-29l-379 1409v-1413h-20z" />
<glyph unicode="n" horiz-adv-x="759" d="M82 0v1434h35l540 -1407v1407h21v-1434h-31l-545 1413v-1413h-20z" />
<glyph unicode="o" horiz-adv-x="763" d="M82 352v729q0 77 16.5 140.5t51 114.5t93.5 79.5t138 28.5q80 0 139 -28.5t94 -79.5t51.5 -114.5t16.5 -140.5v-729q0 -77 -16.5 -140.5t-51.5 -114t-94 -79t-139 -28.5q-79 0 -138 28.5t-93.5 79t-51 114t-16.5 140.5zM102 352q0 -73 15 -132.5t46.5 -107.5t87 -75 t130.5 -27t131 27t88 75t47 107.5t15 132.5v729q0 72 -15 131.5t-47 108t-88 75.5t-131 27t-130.5 -27t-87 -75.5t-46.5 -108t-15 -131.5v-729z" />
<glyph unicode="p" horiz-adv-x="731" d="M82 0v1434h276q291 0 291 -344v-140q0 -170 -79.5 -251t-250.5 -81h-217v-618h-20zM102 639h217q163 0 236.5 74.5t73.5 236.5v140q0 152 -62 237.5t-209 85.5h-256v-774z" />
<glyph unicode="q" horiz-adv-x="788" d="M82 352v729q0 77 16.5 140.5t51.5 114.5t94 79.5t139 28.5t139 -28.5t94 -79.5t51.5 -114.5t16.5 -140.5v-729q0 -174 -82 -272q45 -72 141 -72h23v-20h-23q-103 0 -155 78q-76 -76 -205 -76q-80 0 -139 28.5t-94 79t-51.5 114t-16.5 140.5zM102 352q0 -73 15 -132.5 t47 -107.5t88 -75t131 -27t131 27t88 75t47 107.5t15 132.5v729q0 72 -15 131.5t-47 108t-88 75.5t-131 27t-131 -27t-88 -75.5t-47 -108t-15 -131.5v-729z" />
<glyph unicode="r" horiz-adv-x="772" d="M82 0v1434h276q291 0 291 -322v-129q0 -136 -57.5 -210t-181.5 -93q239 -33 239 -285v-225q0 -120 41 -170h-24q-37 56 -37 170v225q0 81 -24 136.5t-71 85.5t-105.5 42.5t-137.5 12.5h-189v-672h-20zM102 692h189q85 0 143.5 12.5t104.5 43.5t68 89.5t22 145.5v129 q0 145 -64 223t-207 78h-256v-721z" />
<glyph unicode="s" horiz-adv-x="753" d="M82 346v68h20v-68q0 -151 65.5 -243.5t209.5 -92.5t209 92.5t65 243.5q0 75 -31 136.5t-80.5 105t-109.5 82.5t-120.5 79.5t-110 85.5t-80.5 110t-31 145q0 164 71 258.5t220 95.5q78 0 135.5 -28t91 -78.5t49 -113t15.5 -137.5v-24h-21v24q0 71 -14 129t-44.5 106 t-84 74.5t-127.5 26.5t-127.5 -26t-84 -73.5t-44.5 -105t-14 -128.5q0 -60 19.5 -111.5t52 -90t74.5 -72.5t88.5 -64t93.5 -60t89 -65t74.5 -74t52 -92t19.5 -115q0 -159 -71 -257.5t-224 -98.5t-224 98.5t-71 257.5z" />
<glyph unicode="t" horiz-adv-x="755" d="M41 1413v21h668v-21h-324v-1413h-20v1413h-324z" />
<glyph unicode="u" horiz-adv-x="743" d="M82 356v1078h20v-1078q0 -72 13.5 -131.5t43.5 -109t84.5 -77.5t129.5 -28q74 0 128 28t83.5 77.5t43 109t13.5 131.5v1078h21v-1078q0 -76 -15 -139t-47.5 -115.5t-90.5 -82t-136 -29.5q-79 0 -137.5 29.5t-91 82t-47.5 115.5t-15 139z" />
<glyph unicode="v" d="M82 1434h22l361 -1411l356 1411h23l-363 -1434h-30z" />
<glyph unicode="w" horiz-adv-x="1282" d="M82 1434h20l269 -1405l266 1396h33l250 -1386l260 1395h20l-268 -1434h-27l-252 1405l-268 -1405h-31z" />
<glyph unicode="x" horiz-adv-x="913" d="M82 0l364 745l-340 689h23l328 -666l327 666h23l-338 -689l362 -745h-22l-352 723l-351 -723h-24z" />
<glyph unicode="y" horiz-adv-x="872" d="M82 1434h20l332 -811l334 811h23l-347 -840v-594h-20v594z" />
<glyph unicode="z" horiz-adv-x="815" d="M82 0v23l627 1390h-596v21h618v-25l-627 -1389h617v-20h-639z" />
<glyph unicode="{" horiz-adv-x="524" d="M82 702v29q38 9 63.5 23.5t40 30t22 44.5t10 51.5t3.5 65.5l15 285q2 38 5.5 64t13.5 54.5t26 46t43.5 29t64.5 11.5h53v-21h-53q-33 0 -57 -10.5t-37.5 -25.5t-22 -41.5t-11.5 -49t-5 -57.5l-14 -287q-1 -39 -3.5 -63t-10.5 -53t-22 -48t-38 -36t-59 -27 q43 -12 70 -32.5t40 -53.5t17 -62.5t6 -79.5l14 -284q2 -35 5 -57.5t11.5 -49.5t22 -42t37.5 -25.5t57 -10.5h53v-20h-53q-46 0 -77 15.5t-46 46.5t-21 63t-9 80l-15 284q-1 42 -3.5 64.5t-10 51.5t-22 44.5t-40 30t-63.5 22.5z" />
<glyph unicode="|" horiz-adv-x="225" d="M102 0v1436h21v-1436h-21z" />
<glyph unicode="}" horiz-adv-x="524" d="M82 0v20h53q33 0 57 10.5t37.5 25.5t22 42t11.5 49.5t5 57.5l15 284q2 50 6 79.5t17 62.5t40 53.5t70 32.5q-35 10 -59 27t-38 36t-22 48t-10.5 53t-3.5 63l-15 287q-2 35 -5 57.5t-11.5 49t-22 41.5t-37.5 25.5t-57 10.5h-53v21h53q46 0 77 -15.5t46.5 -47t21.5 -63.5 t9 -79l14 -285q1 -43 3.5 -65.5t10 -51.5t22 -44.5t40 -30t63.5 -23.5v-29q-38 -8 -63.5 -22.5t-40 -30t-22 -44.5t-10 -51.5t-3.5 -64.5l-14 -284q-3 -48 -9 -80t-21.5 -63t-46.5 -46.5t-77 -15.5h-53z" />
<glyph unicode="~" horiz-adv-x="813" d="M82 672q67 113 168 116q42 1 90 -18.5t84 -44.5t80.5 -44.5t81.5 -18.5q72 5 127 108l18 -10q-62 -114 -143 -119q-40 -2 -86.5 18t-82.5 45t-82.5 45t-86.5 19q-91 0 -152 -106z" />
<glyph unicode="&#xa1;" horiz-adv-x="184" d="M82 0v707l2 411h16l2 -411v-707h-20zM82 1278v158h20v-158h-20z" />
<glyph unicode="&#xa2;" horiz-adv-x="751" d="M82 459v520q0 74 15.5 136t47.5 113t88 81t132 32v93h20v-93q148 -3 216.5 -97.5t68.5 -250.5v-45h-21v45q0 72 -14.5 129.5t-45.5 103t-85 70.5t-129 25q-74 0 -128.5 -27.5t-85 -76t-45 -107.5t-14.5 -131v-520q0 -71 14.5 -130t45 -108t85 -76.5t128.5 -27.5 t128.5 26.5t85.5 74t45.5 106.5t14.5 131v82h21v-82q0 -75 -15.5 -137t-48 -112t-89 -79t-132.5 -31v-96h-20v96q-76 2 -132 32t-88 81t-47.5 113.5t-15.5 136.5z" />
<glyph unicode="&#xa3;" horiz-adv-x="780" d="M82 0v20q24 29 44 53.5t43 56t40.5 61t34.5 62.5t28 66t17.5 67t6 69.5t-8.5 70.5h-181v21h177q-17 62 -49.5 130.5t-58.5 116.5t-46 122.5t-20 158.5q0 62 8.5 114.5t29.5 100.5t53.5 81.5t83 53t115.5 19.5q80 0 137.5 -30.5t89 -85t46 -118.5t14.5 -141v-55h-20v55 q0 72 -13 132t-42 112t-83 81t-129 29q-270 0 -270 -348q0 -83 20.5 -158t46.5 -123t58 -117t49 -130h332v-21h-326q22 -105 -19.5 -223.5t-180.5 -282.5h589v-20h-616z" />
<glyph unicode="&#xa4;" horiz-adv-x="661" d="M82 483l88 86q-57 64 -57 148q0 85 57 145l-88 88l14 15l88 -88q60 57 146 57q87 0 147 -57l88 88l15 -15l-88 -88q57 -60 57 -145q0 -84 -57 -148l88 -86l-15 -14l-88 86q-61 -55 -147 -55q-85 0 -146 55l-88 -86zM133 717q0 -82 57.5 -139.5t139.5 -57.5 q83 0 140.5 57.5t57.5 139.5t-57.5 139t-140.5 57q-82 0 -139.5 -57t-57.5 -139z" />
<glyph unicode="&#xa5;" horiz-adv-x="921" d="M82 1434h22l357 -842l358 842h21l-369 -869h244v-20h-244v-180h244v-21h-244v-344h-20v344h-242v21h242v180h-242v20h240z" />
<glyph unicode="&#xa6;" horiz-adv-x="227" d="M102 0v596h23v-596h-23zM102 838v596h23v-596h-23z" />
<glyph unicode="&#xa7;" horiz-adv-x="753" d="M82 123v47h20v-47q0 -112 81.5 -173t197.5 -61q64 0 123 22t102.5 70t46.5 113q1 54 -22.5 97.5t-63 71.5t-90.5 55t-104.5 47.5t-104.5 49t-91.5 59.5t-64.5 80t-24 110q0 103 76 175t184 99q-51 23 -81 38t-69.5 41.5t-61 51.5t-36.5 61.5t-14 79.5q3 115 90 174.5 t209 59.5q116 -2 197.5 -71t81.5 -183v-19h-21v19q0 105 -75 168t-183 65q-113 0 -194.5 -53.5t-84.5 -159.5q-2 -58 28.5 -104t80 -76.5t110 -58t121 -56.5t111 -63.5t82 -88.5t31.5 -122q0 -101 -63.5 -171.5t-166.5 -111.5q54 -24 91 -45.5t73 -53t53 -73t15 -92.5 q-3 -105 -92 -165t-199 -60q-125 0 -212 66.5t-87 187.5zM109 664q-1 -47 17 -87t44 -67.5t66.5 -52.5t75.5 -41.5t80 -35.5l7.5 -3t7 -3t7.5 -3q104 36 169.5 103t65.5 167q0 55 -21 99t-64.5 78.5t-82 56t-100.5 49.5q-109 -19 -190.5 -88t-81.5 -172z" />
<glyph unicode="&#xa8;" horiz-adv-x="319" d="M82 1536v160h20v-160h-20zM217 1536v160h21v-160h-21z" />
<glyph unicode="&#xa9;" horiz-adv-x="1544" d="M82 717q0 198 87 359.5t245.5 255t357.5 93.5q148 0 277 -55t219.5 -149.5t142 -225t51.5 -278.5t-51.5 -279t-142 -225.5t-219.5 -149.5t-277 -55q-199 0 -357.5 94t-245.5 255.5t-87 359.5zM102 717q0 -144 50 -271t137.5 -219.5t212.5 -146t270 -53.5t270 53.5 t212.5 146t137.5 219.5t50 271t-50 270.5t-137.5 218.5t-212.5 145.5t-270 53.5t-270 -53.5t-212.5 -145.5t-137.5 -218.5t-50 -270.5zM557 520v393q0 111 50 181.5t157 70.5q106 0 155.5 -70.5t49.5 -181.5v-34h-21v34q0 103 -43.5 167.5t-140.5 64.5q-51 0 -88 -18.5 t-58 -51.5t-30.5 -73t-9.5 -89v-393q0 -103 44 -168t142 -65q97 0 140.5 65t43.5 168v51h21v-51q0 -111 -49.5 -182.5t-155.5 -71.5q-107 0 -157 71.5t-50 182.5z" />
<glyph unicode="&#xaa;" horiz-adv-x="552" d="M82 872v7q0 222 369 227v117q0 44 -6.5 77.5t-22.5 62.5t-47 44.5t-76 15.5q-166 0 -166 -200v-15h-20v15q0 221 186 221q95 0 133.5 -59.5t38.5 -161.5v-533h-20v144q-25 -70 -73 -112t-118 -42q-87 0 -132.5 51.5t-45.5 140.5zM86 506v20h385v-20h-385zM102 872 q0 -80 39.5 -126t118.5 -46q85 0 133 66.5t58 157.5v161q-50 -1 -91 -4.5t-91.5 -16.5t-85 -34t-58 -60t-23.5 -91v-7z" />
<glyph unicode="&#xab;" horiz-adv-x="503" d="M82 719l137 487h21l-138 -487l138 -486h-21zM264 719l137 487h21l-137 -487l137 -486h-21z" />
<glyph unicode="&#xac;" horiz-adv-x="759" d="M82 709v18h596v-291h-21v273h-575z" />
<glyph unicode="&#xad;" horiz-adv-x="520" d="M82 709v18h356v-18h-356z" />
<glyph unicode="&#xae;" horiz-adv-x="1544" d="M82 717q0 198 87 359.5t245.5 255t357.5 93.5q148 0 277 -55t219.5 -149.5t142 -225t51.5 -278.5t-51.5 -279t-142 -225.5t-219.5 -149.5t-277 -55q-199 0 -357.5 94t-245.5 255.5t-87 359.5zM102 717q0 -144 50 -271t137.5 -219.5t212.5 -146t270 -53.5t270 53.5 t212.5 146t137.5 219.5t50 271t-50 270.5t-137.5 218.5t-212.5 145.5t-270 53.5t-270 -53.5t-212.5 -145.5t-137.5 -218.5t-50 -270.5zM584 279v876h194q205 0 205 -227v-29q0 -85 -32.5 -138.5t-110.5 -72.5q145 -36 145 -196v-95q0 -87 29 -118h-25q-24 42 -24 118v95 q0 57 -17 95t-51 58t-74 27.5t-96 7.5h-123v-401h-20zM604 700h148q108 0 159.5 46.5t51.5 152.5v29q0 100 -43 153.5t-142 53.5h-174v-435z" />
<glyph unicode="&#xaf;" horiz-adv-x="520" d="M82 1536v18h356v-18h-356z" />
<glyph unicode="&#xb0;" horiz-adv-x="409" d="M82 1331q0 51 36 85t87 34t87 -34t36 -85q0 -52 -35.5 -86.5t-87.5 -34.5t-87.5 34.5t-35.5 86.5zM102 1331q0 -44 30 -72t73 -28q42 0 72 28.5t30 71.5q0 42 -30 70.5t-72 28.5q-43 0 -73 -28.5t-30 -70.5z" />
<glyph unicode="&#xb1;" horiz-adv-x="786" d="M82 399v21h301v287h-301v20h301v303h20v-303h302v-20h-302v-287h302v-21h-623z" />
<glyph unicode="&#xb2;" horiz-adv-x="544" d="M82 719v10q0 71 20 134t51.5 110.5t70 90.5t77 82t70 77t51.5 83.5t20 94.5q0 217 -170 217q-91 0 -130.5 -62t-39.5 -159v-43h-20v43q0 106 45 173.5t145 67.5q101 0 146 -65.5t45 -171.5q0 -51 -19.5 -97.5t-50.5 -85t-69 -77t-76 -80t-70 -86.5t-53 -105t-23 -127v-4 h353v-20h-373z" />
<glyph unicode="&#xb3;" horiz-adv-x="544" d="M82 942v39h20v-39q0 -96 40 -154.5t130 -58.5t130 58.5t40 154.5v70q0 72 -42 121t-113 49h-68v20h68q68 0 112.5 55.5t42.5 124.5v23q0 95 -40 154t-130 59t-130 -59t-40 -154v-25h-20v25q0 103 45.5 168t144.5 65q98 0 144.5 -65t46.5 -168v-23q0 -64 -32.5 -115.5 t-90.5 -72.5q61 -20 92 -68t31 -114v-70q0 -103 -46.5 -168t-144.5 -65q-99 0 -144.5 65t-45.5 168z" />
<glyph unicode="&#xb4;" horiz-adv-x="342" d="M82 1561l149 176h29l-151 -176h-27z" />
<glyph unicode="&#xb5;" horiz-adv-x="821" d="M117 -186v1210h20v-662q0 -73 14 -133t44.5 -108.5t84 -75.5t126.5 -27q72 0 125.5 27t84.5 75.5t45.5 108.5t14.5 133v662h20v-1024h-20l2 231q-26 -110 -93.5 -170.5t-178.5 -60.5t-179.5 61t-91.5 164l2 -411h-20z" />
<glyph unicode="&#xb6;" horiz-adv-x="811" d="M59 952v150q0 80 10 135t36.5 102t78.5 70.5t131 24.5h379v-1557h-20v1536h-338v-1536h-21v741q-144 9 -200 88t-56 246z" />
<glyph unicode="&#xb7;" horiz-adv-x="184" d="M82 668v159h20v-159h-20z" />
<glyph unicode="&#xb8;" horiz-adv-x="503" d="M82 -182h20v-6q0 -35 26 -60t58.5 -34.5t67.5 -10.5q55 0 101 25.5t46 77.5q0 29 -12.5 48.5t-35 28.5t-44.5 12t-51 3h-10v98h20v-80q154 -4 154 -110q0 -61 -52 -92t-116 -29q-66 0 -119 31t-53 92v6z" />
<glyph unicode="&#xb9;" horiz-adv-x="337" d="M82 1499q108 12 147 129h27v-909h-20v868q-50 -96 -152 -108z" />
<glyph unicode="&#xba;" horiz-adv-x="552" d="M82 905v305q0 104 47 169t147 65t147.5 -65t47.5 -169v-305q0 -103 -47.5 -168t-147.5 -65t-147 64.5t-47 168.5zM86 510v20h385v-20h-385zM102 905q0 -95 41.5 -154t132.5 -59t133 59t42 154v305q0 95 -42 154t-133 59t-132.5 -59t-41.5 -154v-305z" />
<glyph unicode="&#xbb;" horiz-adv-x="503" d="M82 233l137 486l-137 487h20l138 -487l-138 -486h-20zM264 233l137 486l-137 487h21l137 -487l-137 -486h-21z" />
<glyph unicode="&#xbc;" horiz-adv-x="966" d="M82 1305q108 12 147 129h27v-910h-20v869q-51 -97 -152 -109zM176 0l565 1434h21l-565 -1434h-21zM455 215v21l325 673h27v-673h78v-21h-78v-215h-21v215h-331zM479 236h307v638z" />
<glyph unicode="&#xbd;" horiz-adv-x="1110" d="M82 1305q108 12 147 129h27v-910h-20v869q-51 -97 -152 -109zM176 0l565 1434h21l-565 -1434h-21zM647 0v10q0 71 20 134t51.5 110.5t70.5 90.5t77.5 82t70 77t51.5 83.5t20 94.5q0 217 -170 217q-91 0 -130.5 -62t-39.5 -159v-43h-21v43q0 106 45.5 174t145.5 68 q101 0 145.5 -66t44.5 -172q0 -51 -19.5 -97.5t-50.5 -85t-68.5 -77t-75.5 -80t-70 -86.5t-53 -104.5t-23 -126.5v-5h352v-20h-373z" />
<glyph unicode="&#xbe;" horiz-adv-x="1126" d="M82 748v38h20v-38q0 -96 40 -154.5t130 -58.5t130 58.5t40 154.5v69q0 72 -42 121t-113 49h-68v21h68q68 0 112.5 55.5t42.5 124.5v22q0 95 -40 154t-130 59t-130 -59t-40 -154v-24h-20v24q0 103 45.5 168.5t144.5 65.5q98 0 144.5 -65.5t46.5 -168.5v-22 q0 -64 -32.5 -116t-90.5 -73q61 -20 92 -68t31 -114v-69q0 -103 -46.5 -168.5t-144.5 -65.5q-99 0 -144.5 65.5t-45.5 168.5zM336 0l565 1434h21l-566 -1434h-20zM614 215v21l326 673h27v-673h77v-21h-77v-215h-21v215h-332zM639 236h307v638z" />
<glyph unicode="&#xbf;" horiz-adv-x="745" d="M82 358q0 68 23.5 130.5t58.5 108t76.5 97.5t76.5 98.5t58.5 111t23.5 134.5q0 36 -10 74h21q10 -42 10 -74q0 -63 -18 -120.5t-46 -102t-62 -87t-67.5 -83.5t-61.5 -83t-45.5 -94.5t-17.5 -109.5q0 -350 271 -350q75 0 129.5 29.5t84 81t43 111.5t13.5 132v68h21v-68 q0 -76 -15 -140t-47 -117.5t-90.5 -84t-138.5 -30.5q-81 0 -139.5 29t-90.5 82t-46.5 116t-14.5 141zM391 1276v158h21v-158h-21z" />
<glyph unicode="&#xc0;" d="M82 0l362 1436h29l371 -1436h-21l-90 348h-543l-88 -348h-20zM197 369h530l-268 1040zM338 1686h29l149 -177h-27z" />
<glyph unicode="&#xc1;" d="M82 0l362 1436h29l371 -1436h-21l-90 348h-543l-88 -348h-20zM197 369h530l-268 1040zM381 1511l149 177h29l-151 -177h-27z" />
<glyph unicode="&#xc2;" d="M82 0l362 1436h29l371 -1436h-21l-90 348h-543l-88 -348h-20zM197 369h530l-268 1040zM285 1509l166 160h14l168 -160h-31l-143 140l-146 -140h-28z" />
<glyph unicode="&#xc3;" d="M82 0l362 1436h29l371 -1436h-21l-90 348h-543l-88 -348h-20zM197 369h530l-268 1040zM264 1565q42 70 103 73q38 1 101.5 -39t92.5 -38q39 2 70 63l18 -10q-37 -72 -88 -74q-36 -2 -98.5 38.5t-95.5 39.5q-49 0 -84 -64z" />
<glyph unicode="&#xc4;" d="M82 0l362 1436h29l371 -1436h-21l-90 348h-543l-88 -348h-20zM197 369h530l-268 1040zM381 1509v160h20v-160h-20zM516 1509v160h21v-160h-21z" />
<glyph unicode="&#xc5;" d="M82 0l362 1436h29l371 -1436h-21l-90 348h-543l-88 -348h-20zM197 369h530l-268 1040zM334 1640q0 51 36 85t87 34t87 -34t36 -85q0 -52 -35.5 -86t-87.5 -34t-87.5 34t-35.5 86zM354 1640q0 -44 30 -72t73 -28q42 0 72 28.5t30 71.5q0 42 -30 70.5t-72 28.5 q-43 0 -73 -28.5t-30 -70.5z" />
<glyph unicode="&#xc6;" horiz-adv-x="1216" d="M82 0l582 1434h471v-21h-437v-676h369v-20h-369v-697h437v-20h-457v356h-430l-146 -356h-20zM256 377h422v1036z" />
<glyph unicode="&#xc7;" horiz-adv-x="753" d="M82 352v729q0 75 16 138.5t49.5 115t92 80.5t137.5 29t137.5 -29t92 -80.5t49.5 -115t16 -138.5v-108h-21v108q0 72 -14.5 131t-45.5 107.5t-85.5 76t-128.5 27.5t-129 -27.5t-86 -76t-45.5 -108t-14.5 -130.5v-729q0 -71 14.5 -130.5t45.5 -108t86 -76t129 -27.5 t128.5 27.5t85.5 76t45.5 107.5t14.5 131v152h21v-152q0 -74 -15.5 -136.5t-48 -113t-89 -80.5t-132.5 -32v-70q154 -4 154 -110q0 -61 -52 -92t-116 -29q-66 0 -119 31t-53 92v6h20v-6q0 -35 26 -60t58.5 -34.5t67.5 -10.5q55 0 101 25.5t46 77.5q0 29 -12.5 48.5t-35 28.5 t-44.5 12t-51 3h-10v88q-76 2 -132.5 32t-89 80.5t-48 113t-15.5 136.5z" />
<glyph unicode="&#xc8;" horiz-adv-x="700" d="M82 0v1434h536v-21h-516v-676h437v-20h-437v-697h516v-20h-536zM252 1718h29l149 -176h-27z" />
<glyph unicode="&#xc9;" horiz-adv-x="700" d="M82 0v1434h536v-21h-516v-676h437v-20h-437v-697h516v-20h-536zM301 1520l150 176h28l-151 -176h-27z" />
<glyph unicode="&#xca;" horiz-adv-x="700" d="M82 0v1434h536v-21h-516v-676h437v-20h-437v-697h516v-20h-536zM176 1524l166 159h14l168 -159h-30l-144 139l-145 -139h-29z" />
<glyph unicode="&#xcb;" horiz-adv-x="700" d="M82 0v1434h536v-21h-516v-676h437v-20h-437v-697h516v-20h-536zM272 1520v159h21v-159h-21zM408 1520v159h20v-159h-20z" />
<glyph unicode="&#xcc;" horiz-adv-x="184" d="M-49 1696h29l149 -176h-27zM82 0v1434h20v-1434h-20z" />
<glyph unicode="&#xcd;" horiz-adv-x="184" d="M37 1522l149 176h29l-152 -176h-26zM82 0v1434h20v-1434h-20z" />
<glyph unicode="&#xce;" horiz-adv-x="184" d="M-82 1520l166 159h14l168 -159h-30l-144 139l-145 -139h-29zM82 0v1434h20v-1434h-20z" />
<glyph unicode="&#xcf;" horiz-adv-x="184" d="M14 1522v159h21v-159h-21zM82 0v1434h20v-1434h-20zM150 1522v159h20v-159h-20z" />
<glyph unicode="&#xd0;" horiz-adv-x="761" d="M-25 709v18h107v707h291q156 0 231.5 -99t75.5 -260v-719q0 -104 -30 -181.5t-100 -126t-175 -48.5h-293v709h-107zM102 20h273q147 0 215.5 92t68.5 244v719q0 153 -69.5 245.5t-216.5 92.5h-271v-686h207v-18h-207v-689z" />
<glyph unicode="&#xd1;" horiz-adv-x="759" d="M82 0v1434h35l540 -1407v1407h21v-1434h-31l-545 1413v-1413h-20zM190 1591q42 71 103 74q38 1 101.5 -39.5t92.5 -38.5q38 2 70 64l18 -11q-36 -71 -88 -73q-36 -2 -98.5 38.5t-95.5 39.5q-49 0 -84 -64z" />
<glyph unicode="&#xd2;" horiz-adv-x="763" d="M82 352v729q0 77 16.5 140.5t51 114.5t93.5 79.5t138 28.5q80 0 139 -28.5t94 -79.5t51.5 -114.5t16.5 -140.5v-729q0 -77 -16.5 -140.5t-51.5 -114t-94 -79t-139 -28.5q-79 0 -138 28.5t-93.5 79t-51 114t-16.5 140.5zM102 352q0 -73 15 -132.5t46.5 -107.5t87 -75 t130.5 -27t131 27t88 75t47 107.5t15 132.5v729q0 72 -15 131.5t-47 108t-88 75.5t-131 27t-130.5 -27t-87 -75.5t-46.5 -108t-15 -131.5v-729zM258 1716h29l149 -176h-26z" />
<glyph unicode="&#xd3;" horiz-adv-x="763" d="M82 352v729q0 77 16.5 140.5t51 114.5t93.5 79.5t138 28.5q80 0 139 -28.5t94 -79.5t51.5 -114.5t16.5 -140.5v-729q0 -77 -16.5 -140.5t-51.5 -114t-94 -79t-139 -28.5q-79 0 -138 28.5t-93.5 79t-51 114t-16.5 140.5zM102 352q0 -73 15 -132.5t46.5 -107.5t87 -75 t130.5 -27t131 27t88 75t47 107.5t15 132.5v729q0 72 -15 131.5t-47 108t-88 75.5t-131 27t-130.5 -27t-87 -75.5t-46.5 -108t-15 -131.5v-729zM326 1540l149 176h29l-152 -176h-26z" />
<glyph unicode="&#xd4;" horiz-adv-x="763" d="M82 352v729q0 77 16.5 140.5t51 114.5t93.5 79.5t138 28.5q80 0 139 -28.5t94 -79.5t51.5 -114.5t16.5 -140.5v-729q0 -77 -16.5 -140.5t-51.5 -114t-94 -79t-139 -28.5q-79 0 -138 28.5t-93.5 79t-51 114t-16.5 140.5zM102 352q0 -73 15 -132.5t46.5 -107.5t87 -75 t130.5 -27t131 27t88 75t47 107.5t15 132.5v729q0 72 -15 131.5t-47 108t-88 75.5t-131 27t-130.5 -27t-87 -75.5t-46.5 -108t-15 -131.5v-729zM207 1536l166 160h14l168 -160h-31l-143 139l-145 -139h-29z" />
<glyph unicode="&#xd5;" horiz-adv-x="763" d="M82 352v729q0 77 16.5 140.5t51 114.5t93.5 79.5t138 28.5q80 0 139 -28.5t94 -79.5t51.5 -114.5t16.5 -140.5v-729q0 -77 -16.5 -140.5t-51.5 -114t-94 -79t-139 -28.5q-79 0 -138 28.5t-93.5 79t-51 114t-16.5 140.5zM102 352q0 -73 15 -132.5t46.5 -107.5t87 -75 t130.5 -27t131 27t88 75t47 107.5t15 132.5v729q0 72 -15 131.5t-47 108t-88 75.5t-131 27t-130.5 -27t-87 -75.5t-46.5 -108t-15 -131.5v-729zM201 1583q42 71 102 74q38 1 102 -39.5t93 -38.5q38 2 69 63l19 -10q-36 -71 -88 -73q-36 -2 -99 38t-96 39q-50 0 -84 -63z" />
<glyph unicode="&#xd6;" horiz-adv-x="763" d="M82 352v729q0 77 16.5 140.5t51 114.5t93.5 79.5t138 28.5q80 0 139 -28.5t94 -79.5t51.5 -114.5t16.5 -140.5v-729q0 -77 -16.5 -140.5t-51.5 -114t-94 -79t-139 -28.5q-79 0 -138 28.5t-93.5 79t-51 114t-16.5 140.5zM102 352q0 -73 15 -132.5t46.5 -107.5t87 -75 t130.5 -27t131 27t88 75t47 107.5t15 132.5v729q0 72 -15 131.5t-47 108t-88 75.5t-131 27t-130.5 -27t-87 -75.5t-46.5 -108t-15 -131.5v-729zM303 1536v160h21v-160h-21zM438 1536v160h21v-160h-21z" />
<glyph unicode="&#xd7;" horiz-adv-x="622" d="M82 500l215 215l-215 215l14 14l215 -215l215 215l15 -14l-215 -215l215 -215l-15 -15l-215 215l-215 -215z" />
<glyph unicode="&#xd8;" horiz-adv-x="763" d="M82 352v729q0 77 16.5 140.5t51 114.5t93.5 79.5t138 28.5q152 0 233 -109l39 99l17 -7l-43 -112q55 -89 55 -234v-729q0 -77 -16.5 -140.5t-51.5 -114t-94 -79t-139 -28.5q-158 0 -234 110l-43 -106l-16 6l47 119q-53 90 -53 233zM102 352q0 -126 41 -209l461 1168 q-69 112 -223 112q-75 0 -130.5 -27t-87 -75.5t-46.5 -108t-15 -131.5v-729zM156 121q70 -111 225 -111q75 0 131 27t88 75t47 107.5t15 132.5v729q0 124 -46 209z" />
<glyph unicode="&#xd9;" horiz-adv-x="743" d="M82 356v1078h20v-1078q0 -72 13.5 -131.5t43.5 -109t84.5 -77.5t129.5 -28q74 0 128 28t83.5 77.5t43 109t13.5 131.5v1078h21v-1078q0 -76 -15 -139t-47.5 -115.5t-90.5 -82t-136 -29.5q-79 0 -137.5 29.5t-91 82t-47.5 115.5t-15 139zM246 1698h28l150 -176h-27z" />
<glyph unicode="&#xda;" horiz-adv-x="743" d="M82 356v1078h20v-1078q0 -72 13.5 -131.5t43.5 -109t84.5 -77.5t129.5 -28q74 0 128 28t83.5 77.5t43 109t13.5 131.5v1078h21v-1078q0 -76 -15 -139t-47.5 -115.5t-90.5 -82t-136 -29.5q-79 0 -137.5 29.5t-91 82t-47.5 115.5t-15 139zM336 1540l149 176h29l-152 -176 h-26z" />
<glyph unicode="&#xdb;" horiz-adv-x="743" d="M82 356v1078h20v-1078q0 -72 13.5 -131.5t43.5 -109t84.5 -77.5t129.5 -28q74 0 128 28t83.5 77.5t43 109t13.5 131.5v1078h21v-1078q0 -76 -15 -139t-47.5 -115.5t-90.5 -82t-136 -29.5q-79 0 -137.5 29.5t-91 82t-47.5 115.5t-15 139zM201 1536l166 160h14l168 -160 h-31l-143 139l-146 -139h-28z" />
<glyph unicode="&#xdc;" horiz-adv-x="743" d="M82 356v1078h20v-1078q0 -72 13.5 -131.5t43.5 -109t84.5 -77.5t129.5 -28q74 0 128 28t83.5 77.5t43 109t13.5 131.5v1078h21v-1078q0 -76 -15 -139t-47.5 -115.5t-90.5 -82t-136 -29.5q-79 0 -137.5 29.5t-91 82t-47.5 115.5t-15 139zM293 1530v160h20v-160h-20z M428 1530v160h21v-160h-21z" />
<glyph unicode="&#xdd;" horiz-adv-x="872" d="M82 1434h20l332 -811l334 811h23l-347 -840v-594h-20v594zM395 1520l150 176h28l-151 -176h-27z" />
<glyph unicode="&#xde;" horiz-adv-x="772" d="M82 0v1434h20v-299h256q291 0 291 -344v-140q0 -170 -79.5 -251t-250.5 -81h-217v-319h-20zM102 340h217q163 0 236.5 74.5t73.5 236.5v140q0 152 -62 237.5t-209 85.5h-256v-774z" />
<glyph unicode="&#xdf;" horiz-adv-x="1415" d="M72 346v68h20v-68q0 -151 65.5 -243.5t209.5 -92.5t209 92.5t65 243.5q0 75 -31 136.5t-80.5 105t-109.5 82.5t-120.5 79.5t-110 85.5t-80.5 110t-31 145q0 164 71 258.5t220 95.5q78 0 135.5 -28t90.5 -78.5t48.5 -112.5t15.5 -138v-24h-20v24q0 71 -14 129t-44.5 106 t-84 74.5t-127.5 26.5q-59 0 -106 -17.5t-77.5 -47.5t-50.5 -73t-28.5 -91t-8.5 -104q0 -76 31 -139t81 -106.5t110 -83t120 -79.5t110 -84.5t81 -109t31 -142.5q0 -159 -71 -257.5t-224 -98.5t-224 98.5t-71 257.5zM752 346v68h20v-68q0 -151 65.5 -243.5t209.5 -92.5 t209 92.5t65 243.5q0 75 -31 136.5t-80.5 105t-109.5 82.5t-120.5 79.5t-110 85.5t-80.5 110t-31 145q0 164 71 258.5t220 95.5q78 0 135.5 -28t90.5 -78.5t48.5 -112.5t15.5 -138v-24h-20v24q0 71 -14 129t-44.5 106t-84 74.5t-127.5 26.5q-59 0 -106 -17.5t-77.5 -47.5 t-50.5 -73t-28.5 -91t-8.5 -104q0 -60 19.5 -111.5t52 -90t74.5 -72.5t89 -64t93.5 -60t88.5 -65t74.5 -74t52 -92t19.5 -115q0 -76 -16 -138.5t-49.5 -112.5t-91.5 -77.5t-137 -27.5q-153 0 -224 98.5t-71 257.5z" />
<glyph unicode="&#xe0;" d="M82 0l362 1436h29l371 -1436h-21l-90 348h-543l-88 -348h-20zM197 369h530l-268 1040zM338 1686h29l149 -177h-27z" />
<glyph unicode="&#xe1;" d="M82 0l362 1436h29l371 -1436h-21l-90 348h-543l-88 -348h-20zM197 369h530l-268 1040zM381 1511l149 177h29l-151 -177h-27z" />
<glyph unicode="&#xe2;" d="M82 0l362 1436h29l371 -1436h-21l-90 348h-543l-88 -348h-20zM197 369h530l-268 1040zM285 1509l166 160h14l168 -160h-31l-143 140l-146 -140h-28z" />
<glyph unicode="&#xe3;" d="M82 0l362 1436h29l371 -1436h-21l-90 348h-543l-88 -348h-20zM197 369h530l-268 1040zM264 1565q42 70 103 73q38 1 101.5 -39t92.5 -38q39 2 70 63l18 -10q-37 -72 -88 -74q-36 -2 -98.5 38.5t-95.5 39.5q-49 0 -84 -64z" />
<glyph unicode="&#xe4;" d="M82 0l362 1436h29l371 -1436h-21l-90 348h-543l-88 -348h-20zM197 369h530l-268 1040zM381 1509v160h20v-160h-20zM516 1509v160h21v-160h-21z" />
<glyph unicode="&#xe5;" d="M82 0l362 1436h29l371 -1436h-21l-90 348h-543l-88 -348h-20zM197 369h530l-268 1040zM334 1640q0 51 36 85t87 34t87 -34t36 -85q0 -52 -35.5 -86t-87.5 -34t-87.5 34t-35.5 86zM354 1640q0 -44 30 -72t73 -28q42 0 72 28.5t30 71.5q0 42 -30 70.5t-72 28.5 q-43 0 -73 -28.5t-30 -70.5z" />
<glyph unicode="&#xe6;" horiz-adv-x="1216" d="M82 0l582 1434h471v-21h-437v-676h369v-20h-369v-697h437v-20h-457v356h-430l-146 -356h-20zM256 377h422v1036z" />
<glyph unicode="&#xe7;" horiz-adv-x="753" d="M82 352v729q0 75 16 138.5t49.5 115t92 80.5t137.5 29t137.5 -29t92 -80.5t49.5 -115t16 -138.5v-108h-21v108q0 72 -14.5 131t-45.5 107.5t-85.5 76t-128.5 27.5t-129 -27.5t-86 -76t-45.5 -108t-14.5 -130.5v-729q0 -71 14.5 -130.5t45.5 -108t86 -76t129 -27.5 t128.5 27.5t85.5 76t45.5 107.5t14.5 131v152h21v-152q0 -74 -15.5 -136.5t-48 -113t-89 -80.5t-132.5 -32v-70q154 -4 154 -110q0 -61 -52 -92t-116 -29q-66 0 -119 31t-53 92v6h20v-6q0 -35 26 -60t58.5 -34.5t67.5 -10.5q55 0 101 25.5t46 77.5q0 29 -12.5 48.5t-35 28.5 t-44.5 12t-51 3h-10v88q-76 2 -132.5 32t-89 80.5t-48 113t-15.5 136.5z" />
<glyph unicode="&#xe8;" horiz-adv-x="700" d="M82 0v1434h536v-21h-516v-676h437v-20h-437v-697h516v-20h-536zM252 1718h29l149 -176h-27z" />
<glyph unicode="&#xe9;" horiz-adv-x="700" d="M82 0v1434h536v-21h-516v-676h437v-20h-437v-697h516v-20h-536zM301 1520l150 176h28l-151 -176h-27z" />
<glyph unicode="&#xea;" horiz-adv-x="700" d="M82 0v1434h536v-21h-516v-676h437v-20h-437v-697h516v-20h-536zM176 1524l166 159h14l168 -159h-30l-144 139l-145 -139h-29z" />
<glyph unicode="&#xeb;" horiz-adv-x="700" d="M82 0v1434h536v-21h-516v-676h437v-20h-437v-697h516v-20h-536zM272 1520v159h21v-159h-21zM408 1520v159h20v-159h-20z" />
<glyph unicode="&#xec;" horiz-adv-x="184" d="M-49 1696h29l149 -176h-27zM82 0v1434h20v-1434h-20z" />
<glyph unicode="&#xed;" horiz-adv-x="184" d="M37 1522l149 176h29l-152 -176h-26zM82 0v1434h20v-1434h-20z" />
<glyph unicode="&#xee;" horiz-adv-x="184" d="M-82 1520l166 159h14l168 -159h-30l-144 139l-145 -139h-29zM82 0v1434h20v-1434h-20z" />
<glyph unicode="&#xef;" horiz-adv-x="184" d="M14 1522v159h21v-159h-21zM82 0v1434h20v-1434h-20zM150 1522v159h20v-159h-20z" />
<glyph unicode="&#xf0;" horiz-adv-x="761" d="M-12 705v18h94v711h291q156 0 231.5 -99t75.5 -260v-719q0 -104 -30 -181.5t-100 -126t-175 -48.5h-293v705h-94zM102 20h273q147 0 215.5 92t68.5 244v719q0 153 -69.5 245.5t-216.5 92.5h-271v-690h209v-18h-209v-685z" />
<glyph unicode="&#xf1;" horiz-adv-x="759" d="M82 0v1434h35l540 -1407v1407h21v-1434h-31l-545 1413v-1413h-20zM190 1591q42 71 103 74q38 1 101.5 -39.5t92.5 -38.5q38 2 70 64l18 -11q-36 -71 -88 -73q-36 -2 -98.5 38.5t-95.5 39.5q-49 0 -84 -64z" />
<glyph unicode="&#xf2;" horiz-adv-x="763" d="M82 352v729q0 77 16.5 140.5t51 114.5t93.5 79.5t138 28.5q80 0 139 -28.5t94 -79.5t51.5 -114.5t16.5 -140.5v-729q0 -77 -16.5 -140.5t-51.5 -114t-94 -79t-139 -28.5q-79 0 -138 28.5t-93.5 79t-51 114t-16.5 140.5zM102 352q0 -73 15 -132.5t46.5 -107.5t87 -75 t130.5 -27t131 27t88 75t47 107.5t15 132.5v729q0 72 -15 131.5t-47 108t-88 75.5t-131 27t-130.5 -27t-87 -75.5t-46.5 -108t-15 -131.5v-729zM258 1716h29l149 -176h-26z" />
<glyph unicode="&#xf3;" horiz-adv-x="763" d="M82 352v729q0 77 16.5 140.5t51 114.5t93.5 79.5t138 28.5q80 0 139 -28.5t94 -79.5t51.5 -114.5t16.5 -140.5v-729q0 -77 -16.5 -140.5t-51.5 -114t-94 -79t-139 -28.5q-79 0 -138 28.5t-93.5 79t-51 114t-16.5 140.5zM102 352q0 -73 15 -132.5t46.5 -107.5t87 -75 t130.5 -27t131 27t88 75t47 107.5t15 132.5v729q0 72 -15 131.5t-47 108t-88 75.5t-131 27t-130.5 -27t-87 -75.5t-46.5 -108t-15 -131.5v-729zM326 1540l149 176h29l-152 -176h-26z" />
<glyph unicode="&#xf4;" horiz-adv-x="763" d="M82 352v729q0 77 16.5 140.5t51 114.5t93.5 79.5t138 28.5q80 0 139 -28.5t94 -79.5t51.5 -114.5t16.5 -140.5v-729q0 -77 -16.5 -140.5t-51.5 -114t-94 -79t-139 -28.5q-79 0 -138 28.5t-93.5 79t-51 114t-16.5 140.5zM102 352q0 -73 15 -132.5t46.5 -107.5t87 -75 t130.5 -27t131 27t88 75t47 107.5t15 132.5v729q0 72 -15 131.5t-47 108t-88 75.5t-131 27t-130.5 -27t-87 -75.5t-46.5 -108t-15 -131.5v-729zM207 1536l166 160h14l168 -160h-31l-143 139l-145 -139h-29z" />
<glyph unicode="&#xf5;" horiz-adv-x="763" d="M82 352v729q0 77 16.5 140.5t51 114.5t93.5 79.5t138 28.5q80 0 139 -28.5t94 -79.5t51.5 -114.5t16.5 -140.5v-729q0 -77 -16.5 -140.5t-51.5 -114t-94 -79t-139 -28.5q-79 0 -138 28.5t-93.5 79t-51 114t-16.5 140.5zM102 352q0 -73 15 -132.5t46.5 -107.5t87 -75 t130.5 -27t131 27t88 75t47 107.5t15 132.5v729q0 72 -15 131.5t-47 108t-88 75.5t-131 27t-130.5 -27t-87 -75.5t-46.5 -108t-15 -131.5v-729zM201 1583q42 71 102 74q38 1 102 -39.5t93 -38.5q38 2 69 63l19 -10q-36 -71 -88 -73q-36 -2 -99 38t-96 39q-50 0 -84 -63z" />
<glyph unicode="&#xf6;" horiz-adv-x="763" d="M82 352v729q0 77 16.5 140.5t51 114.5t93.5 79.5t138 28.5q80 0 139 -28.5t94 -79.5t51.5 -114.5t16.5 -140.5v-729q0 -77 -16.5 -140.5t-51.5 -114t-94 -79t-139 -28.5q-79 0 -138 28.5t-93.5 79t-51 114t-16.5 140.5zM102 352q0 -73 15 -132.5t46.5 -107.5t87 -75 t130.5 -27t131 27t88 75t47 107.5t15 132.5v729q0 72 -15 131.5t-47 108t-88 75.5t-131 27t-130.5 -27t-87 -75.5t-46.5 -108t-15 -131.5v-729zM303 1536v160h21v-160h-21zM438 1536v160h21v-160h-21z" />
<glyph unicode="&#xf7;" horiz-adv-x="520" d="M82 709v18h356v-18h-356zM248 477v160h20v-160h-20zM248 799v159h20v-159h-20z" />
<glyph unicode="&#xf8;" horiz-adv-x="763" d="M82 352v729q0 77 16.5 140.5t51 114.5t93.5 79.5t138 28.5q152 0 233 -109l39 99l17 -7l-43 -112q55 -89 55 -234v-729q0 -77 -16.5 -140.5t-51.5 -114t-94 -79t-139 -28.5q-158 0 -234 110l-43 -106l-16 6l47 119q-53 90 -53 233zM102 352q0 -126 41 -209l461 1168 q-69 112 -223 112q-75 0 -130.5 -27t-87 -75.5t-46.5 -108t-15 -131.5v-729zM156 121q70 -111 225 -111q75 0 131 27t88 75t47 107.5t15 132.5v729q0 124 -46 209z" />
<glyph unicode="&#xf9;" horiz-adv-x="743" d="M82 356v1078h20v-1078q0 -72 13.5 -131.5t43.5 -109t84.5 -77.5t129.5 -28q74 0 128 28t83.5 77.5t43 109t13.5 131.5v1078h21v-1078q0 -76 -15 -139t-47.5 -115.5t-90.5 -82t-136 -29.5q-79 0 -137.5 29.5t-91 82t-47.5 115.5t-15 139zM246 1698h28l150 -176h-27z" />
<glyph unicode="&#xfa;" horiz-adv-x="743" d="M82 356v1078h20v-1078q0 -72 13.5 -131.5t43.5 -109t84.5 -77.5t129.5 -28q74 0 128 28t83.5 77.5t43 109t13.5 131.5v1078h21v-1078q0 -76 -15 -139t-47.5 -115.5t-90.5 -82t-136 -29.5q-79 0 -137.5 29.5t-91 82t-47.5 115.5t-15 139zM336 1540l149 176h29l-152 -176 h-26z" />
<glyph unicode="&#xfb;" horiz-adv-x="743" d="M82 356v1078h20v-1078q0 -72 13.5 -131.5t43.5 -109t84.5 -77.5t129.5 -28q74 0 128 28t83.5 77.5t43 109t13.5 131.5v1078h21v-1078q0 -76 -15 -139t-47.5 -115.5t-90.5 -82t-136 -29.5q-79 0 -137.5 29.5t-91 82t-47.5 115.5t-15 139zM201 1536l166 160h14l168 -160 h-31l-143 139l-146 -139h-28z" />
<glyph unicode="&#xfc;" horiz-adv-x="743" d="M82 356v1078h20v-1078q0 -72 13.5 -131.5t43.5 -109t84.5 -77.5t129.5 -28q74 0 128 28t83.5 77.5t43 109t13.5 131.5v1078h21v-1078q0 -76 -15 -139t-47.5 -115.5t-90.5 -82t-136 -29.5q-79 0 -137.5 29.5t-91 82t-47.5 115.5t-15 139zM293 1530v160h20v-160h-20z M428 1530v160h21v-160h-21z" />
<glyph unicode="&#xfd;" horiz-adv-x="872" d="M82 1434h20l332 -811l334 811h23l-347 -840v-594h-20v594zM395 1520l150 176h28l-151 -176h-27z" />
<glyph unicode="&#xfe;" horiz-adv-x="772" d="M82 0v1434h20v-299h256q291 0 291 -344v-140q0 -170 -79.5 -251t-250.5 -81h-217v-319h-20zM102 340h217q163 0 236.5 74.5t73.5 236.5v140q0 152 -62 237.5t-209 85.5h-256v-774z" />
<glyph unicode="&#xff;" horiz-adv-x="872" d="M82 1434h20l332 -811l334 811h23l-347 -840v-594h-20v594zM356 1522v159h21v-159h-21zM492 1522v159h20v-159h-20z" />
<glyph unicode="&#x152;" horiz-adv-x="1142" d="M82 358v717q0 72 14 133.5t45 113.5t86.5 82t130.5 30h703v-21h-438v-676h370v-20h-370v-697h438v-20h-703q-61 0 -109 20t-79 53.5t-51 80t-28.5 97t-8.5 107.5zM102 358q0 -68 13 -125.5t41 -107t79.5 -77.5t122.5 -28h244v1393h-244q-71 0 -122.5 -28t-79.5 -77.5 t-41 -107t-13 -125.5v-717z" />
<glyph unicode="&#x153;" horiz-adv-x="1142" d="M82 358v717q0 72 14 133.5t45 113.5t86.5 82t130.5 30h703v-21h-438v-676h370v-20h-370v-697h438v-20h-703q-61 0 -109 20t-79 53.5t-51 80t-28.5 97t-8.5 107.5zM102 358q0 -68 13 -125.5t41 -107t79.5 -77.5t122.5 -28h244v1393h-244q-71 0 -122.5 -28t-79.5 -77.5 t-41 -107t-13 -125.5v-717z" />
<glyph unicode="&#x178;" horiz-adv-x="872" d="M82 1434h20l332 -811l334 811h23l-347 -840v-594h-20v594zM356 1522v159h21v-159h-21zM492 1522v159h20v-159h-20z" />
<glyph unicode="&#x2c6;" horiz-adv-x="512" d="M82 1577l166 160h14l168 -160h-31l-143 139l-145 -139h-29z" />
<glyph unicode="&#x2dc;" horiz-adv-x="548" d="M82 1579q42 71 102 74q38 1 102 -39.5t93 -38.5q39 2 70 63l18 -10q-37 -72 -88 -74q-36 -2 -99 38.5t-96 39.5q-50 0 -84 -63z" />
<glyph unicode="&#x2000;" horiz-adv-x="879" />
<glyph unicode="&#x2001;" horiz-adv-x="1759" />
<glyph unicode="&#x2002;" horiz-adv-x="879" />
<glyph unicode="&#x2003;" horiz-adv-x="1759" />
<glyph unicode="&#x2004;" horiz-adv-x="586" />
<glyph unicode="&#x2005;" horiz-adv-x="439" />
<glyph unicode="&#x2006;" horiz-adv-x="293" />
<glyph unicode="&#x2007;" horiz-adv-x="293" />
<glyph unicode="&#x2008;" horiz-adv-x="219" />
<glyph unicode="&#x2009;" horiz-adv-x="351" />
<glyph unicode="&#x200a;" horiz-adv-x="97" />
<glyph unicode="&#x2010;" horiz-adv-x="520" d="M82 709v18h356v-18h-356z" />
<glyph unicode="&#x2011;" horiz-adv-x="520" d="M82 709v18h356v-18h-356z" />
<glyph unicode="&#x2012;" horiz-adv-x="520" d="M82 709v18h356v-18h-356z" />
<glyph unicode="&#x2013;" horiz-adv-x="759" d="M82 709v18h596v-18h-596z" />
<glyph unicode="&#x2014;" horiz-adv-x="993" d="M82 709v18h829v-18h-829z" />
<glyph unicode="&#x2018;" horiz-adv-x="215" d="M82 1147v160l37 127h14l-33 -127h2v-160h-20z" />
<glyph unicode="&#x2019;" horiz-adv-x="215" d="M82 1147l33 127h-2v160h20v-160l-37 -127h-14z" />
<glyph unicode="&#x201a;" horiz-adv-x="215" d="M82 -127l33 127h-2v160h20v-160l-37 -127h-14z" />
<glyph unicode="&#x201c;" horiz-adv-x="296" d="M82 1147v160l37 127h14l-33 -127h2v-160h-20zM164 1147v160l37 127h14l-33 -127h2v-160h-20z" />
<glyph unicode="&#x201d;" horiz-adv-x="296" d="M82 1147l33 127h-2v160h20v-160l-37 -127h-14zM164 1147l33 127h-2v160h20v-160l-37 -127h-14z" />
<glyph unicode="&#x201e;" horiz-adv-x="313" d="M82 -127l33 127h-2v160h20v-160l-37 -127h-14zM180 -127l33 127h-2v160h20v-160l-36 -127h-15z" />
<glyph unicode="&#x2022;" horiz-adv-x="385" d="M123 717q0 29 20.5 49t49.5 20t49 -20t20 -49t-20 -49.5t-49 -20.5t-49.5 20.5t-20.5 49.5z" />
<glyph unicode="&#x2026;" horiz-adv-x="356" d="M82 0v160h20v-160h-20zM166 0v160h20v-160h-20zM254 0v160h20v-160h-20z" />
<glyph unicode="&#x202f;" horiz-adv-x="351" />
<glyph unicode="&#x2039;" horiz-adv-x="321" d="M82 717l137 487h21l-138 -487l138 -486h-21z" />
<glyph unicode="&#x203a;" horiz-adv-x="321" d="M82 233l137 486l-137 487h20l138 -487l-138 -486h-20z" />
<glyph unicode="&#x205f;" horiz-adv-x="439" />
<glyph unicode="&#x20ac;" horiz-adv-x="815" d="M61 600v21h97v200h-97v21h97v239q0 75 15 137.5t47.5 114.5t90 81.5t135.5 29.5q77 0 134 -29.5t89.5 -81.5t48 -114.5t15.5 -137.5v-63h-20v63q0 71 -13.5 129.5t-43.5 107.5t-83.5 77t-126.5 28t-127 -28t-83.5 -77t-43.5 -108t-14 -129v-239h438v-21h-438v-200h438 v-21h-438v-248q0 -71 13.5 -129.5t43 -107.5t83.5 -77t128 -28q73 0 126.5 28t83.5 77t43.5 107.5t13.5 129.5v76h20v-76q0 -74 -15.5 -136.5t-48 -114.5t-89.5 -81.5t-134 -29.5q-78 0 -135.5 29.5t-89.5 81.5t-47.5 114.5t-15.5 136.5v248h-97z" />
<glyph unicode="&#x2122;" horiz-adv-x="1179" d="M35 1413v21h424v-21h-201v-708h-20v708h-203zM563 705v729h29l237 -686l240 686h29v-729h-21v692l-235 -678h-25l-233 678v-692h-21z" />
<glyph unicode="&#x25fc;" horiz-adv-x="1433" d="M0 0v1434h1434v-1434h-1434z" />
</font>
</defs>
</svg>
